Game Of Thrones S06 COMPLETE 720p HDTV x264-MULTiGRPS

seeders: 24
leechers: 20
updated:
Added by LeRalouf12.85K in TV
Torrent verified. Downloaded 669 times.

DownloadFast Safe Anonymous
movies, software, shows...
  • View all Game of Thrones episodes
  • Season: Full 6th season
  • IMDb link: 0944947
  • TVmaze link: Game of Thrones
  • Original run: 05 December 2010 — Present
  • Summary:

    Seven noble families fight for control of the mythical land of Westeros. Friction between the houses leads to full-scale war. All while a very ancient evil awakens in the farthest north. Amidst the war, a neglected military order of misfits, the Night's Watch, is all that stands between the realms of men and the icy horrors beyond.

    Written by CGUploader2044
Available in versions: 1080p720p480pHDTVWEBRipx264x265
Game Of Thrones S06 COMPLETE 720p HDTV x264-MULTiGRPS (Size: 11.62 GB)
  Game.Of.Thrones.S06E01.The.Red.Woman.720p.HDTV.x264-AVS.mkv 1.27 GB
  Game.Of.Thrones.S06E02.Home.PROPER.720p.HDTV.x264-BATV.mkv 1.04 GB
  Game.Of.Thrones.S06E03.Oathbreaker.RERIP.720p.HDTV.x264-AVS.mkv 1015.56 MB
  Game.of.Thrones.S06E04.Book.of.the.Stranger.720p.HDTV.x264-AVS.mkv 1.18 GB
  Game.Of.Thrones.S06E05.The.Door.720p.HDTV.x264-AVS.mkv 1.28 GB
  Game.of.Thrones.S06E06.Blood.of.My.Blood.720p.HDTV.x264-AVS.mkv 1.06 GB
  Game.Of.Thrones.S06E07.The.Broken.Man.720p.HDTV.x264-AVS.mkv 1.18 GB
  Game.Of.Thrones.S06E08.No.One.720p.HDTV.x264-AVS.mkv 1.22 GB
  Game.Of.Thrones.S06E09.Battle.Of.The.Bastards.720p.HDTV.x264-AVS.mkv 1.29 GB
  Game.Of.Thrones.S06E10.Winds.Of.Winter.720p.HDTV.x264-AVS.mkv 1.12 GB
  subtitles

Description

Game of Thrones season 6 720p HDTV x264-MULTiGRPS, COMPLETE


General
Format : Matroska
Format version : Version 4 / Version 2
File size : 1.27 GiB
Duration : 49mn 55s
Overall bit rate : 3 645 Kbps
Encoded date : UTC 2016-04-25 01:08:04
Writing application : FastLE v2.5.0 - AVS
Writing library : libx264 + libebml + libmatroska + libfastrar

Video
ID : 1
Format : AVC
Format/Info : Advanced Video Codec
Format profile : [email protected]
Format settings, CABAC : Yes
Format settings, ReFrames : 5 frames
Codec ID : V_MPEG4/ISO/AVC
Duration : 49mn 55s
Bit rate : 3 189 Kbps
Width : 1 280 pixels
Height : 718 pixels
Display aspect ratio : 16:9
Frame rate mode : Constant
Frame rate : 23.976 fps
Color space : YUV
Chroma subsampling : 4:2:0
Bit depth : 8 bits
Scan type : Progressive
Bits/(Pixel*Frame) : 0.145
Stream size : 1.11 GiB (87%)
Writing library : x264 core 148 r2665 a01e339
Encoding settings : cabac=1 / ref=5 / deblock=1:0:0 / analyse=0x3:0x113 / me=umh / subme=8 / psy=1 / psy_rd=1.00:0.00 / mixed_ref=1 / me_range=16 / chroma_me=1 / trellis=1 / 8x8dct=1 / cqm=0 / deadzone=21,11 / fast_pskip=1 / chroma_qp_offset=-2 / threads=22 / lookahead_threads=3 / sliced_threads=0 / nr=0 / decimate=1 / interlaced=0 / bluray_compat=0 / constrained_intra=0 / bframes=3 / b_pyramid=2 / b_adapt=2 / b_bias=0 / direct=3 / weightb=1 / open_gop=0 / weightp=2 / keyint=250 / keyint_min=23 / scenecut=40 / intra_refresh=0 / rc_lookahead=50 / rc=crf / mbtree=1 / crf=18.0 / qcomp=0.60 / qpmin=0 / qpmax=69 / qpstep=4 / ip_ratio=1.40 / aq=1:1.00
Default : Yes
Forced : No
Matrix coefficients : BT.709

Audio
ID : 2
Format : AC-3
Format/Info : Audio Coding 3
Mode extension : CM (complete main)
Format settings, Endianness : Big
Codec ID : A_AC3
Duration : 49mn 55s
Bit rate mode : Constant
Bit rate : 384 Kbps
Channel(s) : 6 channels
Channel positions : Front: L C R, Side: L R, LFE
Sampling rate : 48.0 KHz
Bit depth : 16 bits
Compression mode : Lossy
Stream size : 137 MiB (11%)
Default : Yes
Forced : No


The 6th season complete, 720p.
English and french subtitles included, .srt.

Screenshots included for you guys to see.

Related Torrents

torrent name size files age seed leech

Sharing Widget


Download torrent
11.62 GB
seeders:31
leechers:26
Game Of Thrones S06 COMPLETE 720p HDTV x264-MULTiGRPS



To share this torrent use the code below and insert it into comments, status messages, forum posts or your signature.

Torrent: Game Of Thrones S06 COMPLETE 720p HDTV x264-MULTiGRPS

Trackers

tracker name
udp://tracker.openbittorrent.com:80/announce
udp://9.rarbg.com:2710/announce
udp://tracker.coppersurfer.tk:6969/announce
udp://p4p.arenabg.com:1337/announce
udp://tracker.opentrackr.org:1337/announce
µTorrent compatible trackers list

Locations

name
KickassTorrents
Torrent hash: 44451B504E59DCBC7F720221A5C443387A07D011

All Comments

audio
0/10
video
0/10
please, leave only comments related to that torrent
Sign In


User Opinions

Report a bug Open chat