Slasher S01E03 HDTV x264-BAJSKORV[rartv]

seeders: 5
leechers: 1
updated:
Added by z0n3212.58M in TV
Torrent verified. Downloaded 948 times.

DownloadFast Safe Anonymous
movies, software, shows...
  • View all Slasher episodes
  • Episode title: Like As Fire Eateth And Burneth Wood
  • Episode: S01E03
  • Air date: 11 March 2016
  • IMDb link: 4667888
  • TVmaze link: Slasher
  • Summary:

    A young woman returns to the small town where she was born, only to find herself the centerpiece in a series of horrifying copycat murders based on the widely known, grisly killings of her parents. As the murders escalate, long-buried secrets are revealed, making everyone around her a suspect... or a victim. She finds herself questioning everything and everyone around her.

    Written by LazyRips39.42K Last edited by TheCheetah, 3 months ago
Available in versions: 1080p720pHDTVWEBRipx265
Slasher S01E03 HDTV x264-BAJSKORV[rartv] (Size: 269.67 MB)
  rarbg.com.txt 34 bytes
  slasher.s01e03.hdtv.x264-bajskorv.mp4 269.67 MB
  slasher.s01e03.hdtv.x264-bajskorv.nfo 71 bytes

Description


http://rarbg.to
Slasher.S01E03.HDTV.x264-BAJSKORV[rartv]

image
Screens :

image
Mediainfo :

Video
ID : 1
Format : AVC
Format/Info : Advanced Video Codec
Format profile : [email protected]
Format settings, CABAC : Yes
Format settings, ReFrames : 5 frames
Codec ID : avc1
Codec ID/Info : Advanced Video Coding
Duration : 42mn 58s
Bit rate : 753 Kbps
Maximum bit rate : 4 704 Kbps
Width : 720 pixels
Height : 404 pixels
Display aspect ratio : 16:9
Frame rate mode : Constant
Frame rate : 23.976 (24000/1001) fps
Color space : YUV
Chroma subsampling : 4:2:0
Bit depth : 8 bits
Scan type : Progressive
Bits/(Pixel*Frame) : 0.108
Stream size : 231 MiB (86%)
Writing library : x264 core 148 r2665 a01e339
Encoding settings : cabac=1 / ref=5 / deblock=1:1:1 / analyse=0x3:0x133 / me=umh / subme=9 / psy=1 / psy_rd=1.00:0.00 / mixed_ref=1 / me_range=16 / chroma_me=1 / trellis=2 / 8x8dct=1 / cqm=0 / deadzone=21,11 / fast_pskip=0 / chroma_qp_offset=-2 / threads=16 / lookahead_threads=1 / sliced_threads=0 / nr=0 / decimate=1 / interlaced=0 / bluray_compat=0 / constrained_intra=0 / bframes=3 / b_pyramid=2 / b_adapt=2 / b_bias=0 / direct=3 / weightb=1 / open_gop=0 / weightp=2 / keyint=250 / keyint_min=23 / scenecut=40 / intra_refresh=0 / rc_lookahead=60 / rc=crf / mbtree=1 / crf=19.0 / qcomp=0.60 / qpmin=0 / qpmax=69 / qpstep=4 / ip_ratio=1.40 / aq=1:1.00
Encoded date : UTC 2016-03-18 23:40:06
Tagged date : UTC 2016-03-19 14:06:23
Color range : Limited
Matrix coefficients : BT.709

Audio
ID : 2
Format : AAC
Format/Info : Advanced Audio Codec
Format profile : LC
Codec ID : 40
Duration : 42mn 58s
Bit rate mode : Variable
Bit rate : 120 Kbps
Maximum bit rate : 148 Kbps
Channel(s) : 2 channels
Channel positions : Front: L R
Sampling rate : 48.0 KHz
Frame rate : 46.875 fps (1024 spf)
Compression mode : Lossy
Stream size : 37.0 MiB (14%)
Encoded date : UTC 2016-03-19 14:06:22
Tagged date : UTC 2016-03-19 14:06:23

Related Torrents

torrent name size files age seed leech

Sharing Widget


Download torrent
269.67 MB
seeders:5
leechers:1
Slasher S01E03 HDTV x264-BAJSKORV[rartv]



To share this torrent use the code below and insert it into comments, status messages, forum posts or your signature.

Torrent: Slasher S01E03 HDTV x264-BAJSKORV[rartv]

Trackers

tracker name
udp://tracker.openbittorrent.com:80/announce
udp://tracker.publicbt.com:80/announce
udp://tracker.coppersurfer.tk:6969/announce
udp://glotorrents.pw:6969/announce
http://mgtracker.org:2710/announce
http://announce.xxx-tracker.com:2710/announce
http://thetracker.org/announce
http://tracker.mg64.net:6881/announce
http://glotorrents.com:6969/announce
ĀµTorrent compatible trackers list

Locations

name
KickassTorrents
Torrent hash: 581A8421372F52435EE7DD260E5325391225E61B

All Comments

audio
9/10
video
9/10
please, leave only comments related to that torrent
Sign In

audio: 9video: 9
Thanks. Much appreciated

User Opinions

Mel!10.61K, bluewolverine7477, cluckyou4364, ninnan3201, RoderickP3180, kdavis8303070, Snooples1010, Leechking9ja880, edesiemi557, khaymans450
Report a bug Open chat